Orgasms - Aleska Diamond & James - 1080p

Orgasms – Aleska Diamond & James – 1080p

sexturko.com-Lakeside_1080p.mov
Format : MPEG-4
Format profile : QuickTime
Codec ID : qt
File size : 938 MiB
Duration : 13mn 39s
Overall bit rate : 9 606 Kbps
Encoded date : UTC 2012-10-24 18:58:38
Tagged date : UTC 2012-10-24 21:01:59
Writing library : Apple QuickTime
Media/UUID : 37608203-F72C-43B9-AAB4-400CF0D37024

Video
ID : 1
Format : AVC
Format/Info : Advanced Video Codec
Format profile : Main@L4.0
Format settings, CABAC : No
Format settings, ReFrames : 2 frames
Codec ID : avc1
Codec ID/Info : Advanced Video Coding
Duration : 13mn 39s
Bit rate : 9 491 Kbps
Width : 1 888 pixels
Original width : 1 920 pixels
Height : 1 062 pixels
Original height : 1 080 pixels
Display aspect ratio : 16:9
Frame rate mode : Constant
Frame rate : 25.000 fps
Color space : YUV
Chroma subsampling : 4:2:0
Bit depth : 8 bits
Scan type : Progressive
Bits/(Pixel*Frame) : 0.189
Stream size : 927 MiB (99%)
Language : English
Encoded date : UTC 2012-10-24 21:01:22
Tagged date : UTC 2012-10-24 21:01:59
Color primaries : BT.709
Transfer characteristics : BT.709
Matrix coefficients : BT.709

Audio
ID : 2
Format : AAC
Format/Info : Advanced Audio Codec
Format profile : LC
Codec ID : 40
Duration : 13mn 39s
Source duration : 13mn 39s
Bit rate mode : Constant
Bit rate : 110 Kbps
Nominal bit rate : 128 Kbps
Channel(s) : 2 channels
Channel positions : Front: L R
Sampling rate : 44.1 KHz
Compression mode : Lossy
Stream size : 10.7 MiB (1%)
Source stream size : 10.7 MiB (1%)
Language : English
Encoded date : UTC 2012-10-24 21:01:22
Tagged date : UTC 2012-10-24 21:01:59

Menu
ID : 3
Duration : 13mn 39s
Language : English
Encoded date : UTC 2012-10-24 21:01:59
Tagged date : UTC 2012-10-24 21:01:59

Orgasms - Aleska Diamond & James - 1080p

Orgasms - Aleska Diamond & James - 1080p

Orgasms - Aleska Diamond & James - 1080p


Letitbit – Orgasms – Aleska Diamond & James – 1080p

Turbobit – Orgasms – Aleska Diamond & James – 1080p

1.282 views